<?xml version="1.0" standalone="no"?>
<!DOCTYPE svg PUBLIC "-//W3C//DTD SVG 1.1//EN" "http://www.w3.org/Graphics/SVG/1.1/DTD/svg11.dtd" >
<svg xmlns="http://www.w3.org/2000/svg">
  <metadata>Created by iconfont</metadata>
  <defs>
  <font id="iconfont" horiz-adv-x="1024">
    <font-face
      font-family="iconfont"
      font-weight="400"
      font-stretch="normal"
      units-per-em="1024"
      ascent="896"
      descent="-128"
    />
      <missing-glyph />
      
      <glyph glyph-name="shenheguanli" unicode="&#58944;" d="M823.6369707 834H200.3630293A138.53006719 138.53006719 0 0 1 62 695.6369707v-623.2739414a138.47438759 138.47438759 0 0 1 138.3630293-138.3630293h623.2739414a138.47438759 138.47438759 0 0 1 138.3630293 138.3630293V695.6369707A138.53006719 138.53006719 0 0 1 823.6369707 834z m69.3763919-138.3630293v-623.2739414a69.43207148 69.43207148 0 0 0-69.3763919-69.3763919H200.3630293a69.43207148 69.43207148 0 0 0-69.3763919 69.3763919V695.6369707a69.43207148 69.43207148 0 0 0 69.3763919 69.3763919h623.2739414a69.43207148 69.43207148 0 0 0 69.3763919-69.3763919zM673.02449932 356.16035624999995h-7.51670421l-49.16481063 85.13363057a144.76614697 144.76614697 0 0 1 14.36525595 16.70378642 147.82850771 147.82850771 0 0 1-118.70824043 235.74610195A147.77282812 147.77282812 0 0 1 409.71714893 439.23385342l-47.93986583-83.07349717H350.97550068a138.3630293 138.3630293 0 0 1 0-276.72605771h322.04899864a138.3630293 138.3630293 0 0 1 0 276.72605771z m-188.75278477 74.10913154a2.39420918 2.39420918 0 0 0 0 0.38975537A34.52115849 34.52115849 0 0 1 472.13362988 477.65256123a78.84187119 78.84187119 0 0 0 39.92204971 146.88195996 78.61915372 78.61915372 0 0 0 74.66592393-53.7305124 79.51002187 79.51002187 0 0 0 4.23162597-24.99999961 78.56347412 78.56347412 0 0 0-36.91536767-66.81514483 38.53006699 38.53006699 0 0 1-5.8463253-4.45434345 34.68819638 34.68819638 0 0 1-4.23162597-4.78841836l-0.33407578-0.50111367a32.12694844 32.12694844 0 0 1-3.00668115-5.17817374l-0.33407579-0.77950985a37.19376387 37.19376387 0 0 1-1.9487751-5.56792911v-1.55901972a14.25389766 14.25389766 0 0 0 0-1.50334102v-1.83741592a13.64142567 13.64142567 0 0 0 0-1.50334102v-1.7817372a14.08685977 14.08685977 0 0 1 0-1.55902061v-1.67037802a17.3162584 17.3162584 0 0 1 0-1.78173721 11.13585732 11.13585732 0 0 1 0-1.33630314c0-0.72383115 0.27839619-1.44766143 0.44543409-2.11581297a6.0690419 6.0690419 0 0 1 0-0.94654776 20.76837451 20.76837451 0 0 1 0.77951074-2.44988877 2.33853047 2.33853047 0 0 1 0-0.55679238c0.33407578-0.89086816 0.72383115-1.78173721 1.11358565-2.67260625a2.39420918 2.39420918 0 0 0 0-0.38975449c0-0.61247197 0.61247197-1.22494394 0.94654775-1.8374168l43.93095732-76.11358623H441.45434287z m188.75278477-143.09576807a69.3763919 69.3763919 0 1 0 0-138.75278466H350.97550068a69.3763919 69.3763919 0 0 0 0 138.75278466z"  horiz-adv-x="1024" />
      
      <glyph glyph-name="zidingyineirong" unicode="&#58943;" d="M351.11546643 776.58167189h-164.92792887A66.87561495 66.87561495 0 0 1 119.31192337 709.75925969v-180.56948034a125.29202308 125.29202308 0 0 1 125.13241482-125.18561757H425.06702129A66.92881771 66.92881771 0 0 1 491.8894335 470.93297871V635.86090761A140.88037255 140.88037255 0 0 1 351.11546643 776.58167189zM415.17134553 635.86090761v-155.03225314H244.44433819A48.30792211 48.30792211 0 0 0 196.29602356 529.08337461V699.70397644h154.92584761a63.84306885 63.84306885 0 0 0 63.94947436-63.84306883zM422.14088069 360.96329289000005H262.05438455A145.72180532 145.72180532 0 0 1 116.4921875 215.56070332000002v-160.08649613a66.92881771 66.92881771 0 0 1 66.82241221-66.82241221h184.5064694A121.35503403 121.35503403 0 0 1 488.91009014 109.74081602000001V294.14088069a66.98201969 66.98201969 0 0 1-66.76920945 66.8224122z m-9.94887852-76.82449348v-174.50438812a44.42413582 44.42413582 0 0 0-44.37093306-44.37093307h-174.50438892V215.56070332000002a68.79090711 68.79090711 0 0 0 68.73770436 68.5780961zM864.99896883 232.90473669999994h-89.59310631V313.9854342a38.4654491 38.4654491 0 1 1-76.93089822 0v-81.0806975H608.93505998a38.4654491 38.4654491 0 0 1 0-76.93089821h89.64630905V29.351752000000033a38.4654491 38.4654491 0 1 1 76.87769547-1e-8v126.6220865h89.64630985a38.41224635 38.41224635 0 1 1 0 76.8244927zM853.66682415 779.5078125H614.84054394a66.92881771 66.92881771 0 0 1-66.82241221-66.82241221v-238.93268572A66.92881771 66.92881771 0 0 1 614.84054394 407.08990986h238.8262802a65.65195628 65.65195628 0 0 1 66.82241222 63.84306885v43.62609762a38.4654491 38.4654491 0 1 1-76.87769546 0v-30.85748323H624.84262444V702.63011705h218.87532197v-15.64155224a38.4654491 38.4654491 0 0 1 76.87769545 0V715.66474365c-0.10640473 35.27329551-30.11264777 63.84306885-66.92881772 63.84306885zM882.13019276 640.0107068899999a38.4654491 38.4654491 0 0 1 0-76.93089822 38.4654491 38.4654491 0 0 1 0 76.93089822z"  horiz-adv-x="1040" />
      
      <glyph glyph-name="haibaoguanli1" unicode="&#59105;" d="M128 682.666667a85.333333 85.333333 0 0 0 85.333333 85.333333h597.333334a85.333333 85.333333 0 0 0 85.333333-85.333333v-597.333334a85.333333 85.333333 0 0 0-85.333333-85.333333h-597.333334a85.333333 85.333333 0 0 0-85.333333 85.333333v597.333334z m341.333333 0h-256V554.666667h256V682.666667z m85.333334 0v-256h256v256h-256z m0-341.333334v-256h256v256h-256z m-85.333334-256V213.333333h-256v-128h256z m0 213.333334v170.666666h-256v-170.666666h256z"  horiz-adv-x="1024" />
      
      <glyph glyph-name="neirongguanli1" unicode="&#59106;" d="M810.666667 768a85.333333 85.333333 0 0 0 85.333333-85.333333v-597.333334a85.333333 85.333333 0 0 0-85.333333-85.333333h-597.333334a85.333333 85.333333 0 0 0-85.333333 85.333333v597.333334a85.333333 85.333333 0 0 0 85.333333 85.333333h597.333334z m0-85.333333h-597.333334v-597.333334h597.333334v597.333334z m-128-256a42.666667 42.666667 0 0 0 42.666666-42.666667v-170.666667a42.666667 42.666667 0 0 0-42.666666-42.666666H341.333333a42.666667 42.666667 0 0 0-42.666666 42.666666v170.666667a42.666667 42.666667 0 0 0 42.666666 42.666667h341.333334z m-42.666667-85.333334h-256v-85.333333h256v85.333333z m42.666667 256a42.666667 42.666667 0 0 0 4.977777-85.048889L682.666667 512H341.333333a42.666667 42.666667 0 0 0-4.977777 85.048889L341.333333 597.333333h341.333334z"  horiz-adv-x="1024" />
      
      <glyph glyph-name="fujianliebiao" unicode="&#59107;" d="M240.469333 444.330667a149.333333 149.333333 0 1 0 211.2 211.2l331.861334-331.861334a149.333333 149.333333 0 0 0-211.2-211.2l-173.482667 173.482667a53.333333 53.333333 0 1 0 75.434667 75.434667l158.407111-158.407111a42.666667 42.666667 0 0 1 60.302222 60.330666l-158.378667 158.407111a138.666667 138.666667 0 0 1-196.096-196.096l173.482667-173.511111A234.666667 234.666667 0 1 1 843.861333 384L512 715.861333A234.666667 234.666667 0 1 1 180.138667 384l15.075555-15.075556a42.666667 42.666667 0 1 1 60.330667 60.330667l-15.075556 15.075556z"  horiz-adv-x="1024" />
      
      <glyph glyph-name="wangzhanshezhi" unicode="&#59108;" d="M810.666667 768a85.333333 85.333333 0 0 0 85.333333-85.333333v-597.333334a85.333333 85.333333 0 0 0-85.333333-85.333333h-597.333334a85.333333 85.333333 0 0 0-85.333333 85.333333v597.333334a85.333333 85.333333 0 0 0 85.333333 85.333333h597.333334z m0-341.333333h-597.333334v-341.333334h597.333334v341.333334z m0 256h-597.333334v-170.666667h597.333334v170.666667zM298.666667 640a42.666667 42.666667 0 1 0 0-85.333333 42.666667 42.666667 0 0 0 0 85.333333zM426.666667 640a42.666667 42.666667 0 1 0 0-85.333333 42.666667 42.666667 0 0 0 0 85.333333z m128 0a42.666667 42.666667 0 1 0 0-85.333333 42.666667 42.666667 0 0 0 0 85.333333z"  horiz-adv-x="1024" />
      
      <glyph glyph-name="lanmuguanli" unicode="&#59109;" d="M853.333333 725.333333a85.333333 85.333333 0 0 0 85.105778-78.961777L938.666667 640v-512a85.333333 85.333333 0 0 0-78.961778-85.105778L853.333333 42.666667H170.666667a85.333333 85.333333 0 0 0-85.105778 78.961777L85.333333 128V640a85.333333 85.333333 0 0 0 78.961778 85.105778L170.666667 725.333333h682.666666z m0-85.333333H170.666667v-512h682.666666V640z m-128-341.333333a42.666667 42.666667 0 0 0 4.977778-85.048889L725.333333 213.333333h-426.666666a42.666667 42.666667 0 0 0-4.977778 85.048889L298.666667 298.666667h426.666666zM341.333333 426.666667a42.666667 42.666667 0 1 0 0-85.333334h-42.666666a42.666667 42.666667 0 1 0 0 85.333334H341.333333z m192 0a42.666667 42.666667 0 0 0 4.977778-85.048889l-4.977778-0.284445h-42.666666a42.666667 42.666667 0 0 0-4.977778 85.048889l4.977778 0.284445h42.666666z m192 0a42.666667 42.666667 0 1 0 0-85.333334H682.666667a42.666667 42.666667 0 1 0 0 85.333334h42.666666zM341.333333 554.666667a42.666667 42.666667 0 0 0 4.977778-85.048889L341.333333 469.333333h-42.666666a42.666667 42.666667 0 0 0-4.977778 85.048889L298.666667 554.666667H341.333333z m192 0a42.666667 42.666667 0 1 0 0-85.333334h-42.666666a42.666667 42.666667 0 1 0 0 85.333334h42.666666z m192 0a42.666667 42.666667 0 0 0 4.977778-85.048889L725.333333 469.333333H682.666667a42.666667 42.666667 0 0 0-4.977778 85.048889L682.666667 554.666667h42.666666z"  horiz-adv-x="1024" />
      
      <glyph glyph-name="xitongshezhi1" unicode="&#59110;" d="M572.330667 806.4a85.333333 85.333333 0 0 1-120.661334 0L370.602667 725.333333H256a85.333333 85.333333 0 0 1-85.333333-85.333333v-114.631111l-81.009778-81.038222a85.333333 85.333333 0 0 1 0-120.661334L170.666667 242.602667V128a85.333333 85.333333 0 0 1 85.333333-85.333333h114.631111l81.038222-81.009778a85.333333 85.333333 0 0 1 120.661334 0L653.397333 42.666667H768a85.333333 85.333333 0 0 1 85.333333 85.333333v114.631111l81.066667 81.038222a85.333333 85.333333 0 0 1 0 120.661334L853.333333 525.397333V640a85.333333 85.333333 0 0 1-85.333333 85.333333h-114.631111l-81.038222 81.066667zM512 746.012444l81.066667-81.066666A85.333333 85.333333 0 0 1 653.368889 640H768v-114.631111a85.333333 85.333333 0 0 1 25.002667-60.302222L874.040889 384l-81.066667-81.066667A85.333333 85.333333 0 0 1 768 242.631111V128h-114.631111a85.333333 85.333333 0 0 1-60.302222-25.002667L512 21.959111l-81.066667 81.066667A85.333333 85.333333 0 0 1 370.631111 128H256v114.631111a85.333333 85.333333 0 0 1-25.002667 60.302222L149.959111 384l81.066667 81.066667A85.333333 85.333333 0 0 1 256 525.368889V640h114.631111a85.333333 85.333333 0 0 1 60.302222 25.002667L512 746.040889zM426.666667 384a85.333333 85.333333 0 1 0 170.666666 0 85.333333 85.333333 0 0 0-170.666666 0z m85.333333 170.666667a170.666667 170.666667 0 1 1 0-341.333334 170.666667 170.666667 0 0 1 0 341.333334z"  horiz-adv-x="1024" />
      
      <glyph glyph-name="qiantaicaidan" unicode="&#59111;" d="M170.666667 725.333333a42.666667 42.666667 0 0 1 0-85.333333h341.333333a42.666667 42.666667 0 1 1 0 85.333333H170.666667z m718.392889-68.551111c5.603556 11.008-2.673778 23.751111-16.213334 24.917334l-24.120889 1.792-19.797333 1.080888-22.471111 0.853334-25.002667 0.483555h-25.969778l-23.694222-0.426666-21.504-0.768-27.733333-1.536-21.76-1.706667c-12.657778-1.109333-19.683556-12.714667-14.193778-23.523556l6.428445-12.344888 8.078222-14.762667 9.728-16.981333 5.489778-9.272889 12.316444-19.911111 13.738667-21.162667 13.255111-19.427556 6.257778-8.874666 11.690666-15.985778 10.353778-13.596445 8.817778-11.121777c7.765333-9.642667 22.556444-10.040889 29.980444-0.853334l13.937778 17.692445 11.235556 14.961778 12.458666 17.379555c6.513778 9.272889 13.368889 19.399111 20.48 30.321778l6.627556 10.353778 12.032 19.484444 10.439111 17.749333 4.608 8.135112 8.021333 14.705777 6.485334 12.373334z m0-426.638222c5.603556 10.979556-2.673778 23.722667-16.213334 24.888889l-24.120889 1.792-19.797333 1.080889-22.471111 0.853333-25.002667 0.483556h-25.969778l-23.694222-0.426667-21.504-0.739556-19.114666-0.995555-23.836445-1.706667-6.542222-0.568889c-12.657778-1.109333-19.683556-12.714667-14.193778-23.523555l6.428445-12.344889 8.078222-14.762667 9.728-16.981333 5.489778-9.244445 12.316444-19.911111 6.798222-10.638222c4.664889-7.196444 9.244444-14.051556 13.653334-20.536889l12.8-18.318222 11.690666-15.985778 10.353778-13.596444 8.817778-11.093334c7.765333-9.671111 22.556444-10.069333 29.980444-0.910222l13.937778 17.720889 11.235556 14.990222 12.458666 17.351111c6.513778 9.272889 13.368889 19.399111 20.48 30.350223l12.856889 20.280889 11.207111 18.659555c3.498667 5.916444 6.684444 11.52 9.642667 16.782222l8.021333 14.677334 6.485334 12.373333zM128 384A42.666667 42.666667 0 0 0 170.666667 426.666667h341.333333a42.666667 42.666667 0 1 0 0-85.333334H170.666667A42.666667 42.666667 0 0 0 128 384zM170.666667 128a42.666667 42.666667 0 1 1 0-85.333333h341.333333a42.666667 42.666667 0 1 1 0 85.333333H170.666667z"  horiz-adv-x="1024" />
      
      <glyph glyph-name="youqinglianjie" unicode="&#59112;" d="M341.333333 128a42.666667 42.666667 0 0 0 42.382223-37.688889l0.284444-4.977778v-85.333333a42.666667 42.666667 0 0 0-85.048889-4.977778l-0.284444 4.977778v85.333333A42.666667 42.666667 0 0 0 341.333333 128z m351.687111 346.510222a42.666667 42.666667 0 0 0 56.32 3.555556l4.010667-3.555556L843.861333 384a234.666667 234.666667 0 0 0-324.096-339.285333L512 52.138667l-90.510222 90.510222a42.666667 42.666667 0 0 0 56.32 63.886222l4.010666-3.555555 90.510223-90.510223a149.333333 149.333333 0 0 1 217.230222 204.8l-6.030222 6.4-90.510223 90.510223a42.666667 42.666667 0 0 0 0 60.330666zM213.333333 213.333333a42.666667 42.666667 0 0 0 4.977778-85.048889L213.333333 128H170.666667a42.666667 42.666667 0 0 0-4.977778 85.048889L170.666667 213.333333h42.666666z m177.976889 291.356445a42.666667 42.666667 0 0 0 56.32 3.555555l4.010667-3.555555 181.020444-181.020445a42.666667 42.666667 0 0 0-56.32-63.886222l-4.010666 3.555556-181.020445 181.020444a42.666667 42.666667 0 0 0 0 60.330667zM180.138667 715.889778a234.666667 234.666667 0 0 0 324.096 7.395555l7.765333-7.395555 90.510222-90.510222a42.666667 42.666667 0 0 0-56.32-63.886223l-4.039111 3.527111-90.481778 90.510223a149.333333 149.333333 0 0 1-217.230222-204.8l6.030222-6.371556 90.510223-90.510222a42.666667 42.666667 0 0 0-56.32-63.886222l-4.010667 3.527111L180.138667 384a234.666667 234.666667 0 0 0 0 331.889778zM853.333333 640a42.666667 42.666667 0 1 0 0-85.333333h-42.666666a42.666667 42.666667 0 1 0 0 85.333333H853.333333z m-170.666666 170.666667a42.666667 42.666667 0 0 0 42.382222-37.688889l0.284444-4.977778v-85.333333a42.666667 42.666667 0 0 0-85.048889-4.977778L640 682.666667v85.333333A42.666667 42.666667 0 0 0 682.666667 810.666667z"  horiz-adv-x="1024" />
      
      <glyph glyph-name="icon-plus" unicode="&#58884;" d="M426.666667 853.333333a42.666667 42.666667 0 0 0 42.666666 42.666667h85.333334a42.666667 42.666667 0 0 0 42.666666-42.666667v-938.666666a42.666667 42.666667 0 0 0-42.666666-42.666667h-85.333334a42.666667 42.666667 0 0 0-42.666666 42.666667V853.333333zM981.333333 469.333333a42.666667 42.666667 0 0 0 42.666667-42.666666v-85.333334a42.666667 42.666667 0 0 0-42.666667-42.666666H42.666667a42.666667 42.666667 0 0 0-42.666667 42.666666v85.333334A42.666667 42.666667 0 0 0 42.666667 469.333333h938.666666z"  horiz-adv-x="1024" />
      
      <glyph glyph-name="chexiao" unicode="&#59099;" d="M658.304 632.704H212.096V742.4c0 7.296-14.592 14.656-21.952 7.296L7.296 610.752C0 603.456 0 596.096 7.296 588.8l182.848-138.944c7.36-7.36 21.952 0 21.952 14.592V559.552h446.208c160.896 0 292.544-117.056 292.544-256 0-139.008-131.648-256-292.544-256H468.096c-21.952 0-36.544-14.656-36.544-36.608 0-21.888 14.592-36.544 36.544-36.544h190.208c204.8 0 365.696 146.304 365.696 329.152 0 182.848-160.896 329.152-365.696 329.152z"  horiz-adv-x="1024" />
      
      <glyph glyph-name="xiazai" unicode="&#59100;" d="M857.6 77.312H206.336a43.712 43.712 0 0 1-44.032-44.032c0-24.576 19.456-44.032 44.032-44.032H857.6a43.712 43.712 0 0 1 44.032 44.032 44.352 44.352 0 0 1-44.032 44.032z m-354.816 75.776a37.76 37.76 0 0 1 29.696-11.264 41.6 41.6 0 0 1 29.696 11.264l266.24 266.24c15.36 15.36 15.36 40.96 0 56.32a40.192 40.192 0 0 1-56.32 0L570.368 273.92V742.912a40 40 0 0 1-39.936 39.936 39.36 39.36 0 0 1-39.936-39.936v-464.896L292.864 475.648a40.192 40.192 0 0 1-56.32 0c-15.36-15.36-15.36-40.96 0-56.32l266.24-266.24z"  horiz-adv-x="1024" />
      
      <glyph glyph-name="baocun" unicode="&#59101;" d="M819.84 812.288H206.976A122.56 122.56 0 0 1 84.48 689.728V76.8c0-67.712 54.848-122.56 122.56-122.56h612.864a122.56 122.56 0 0 1 122.56 122.56V689.728a122.56 122.56 0 0 1-122.56 122.56z m-124.48-63.296v-241.152H331.776V748.992h363.584z m185.792-672.256a61.12 61.12 0 0 0-61.056-61.184H207.104a61.056 61.056 0 0 0-43.456 17.92 60.8 60.8 0 0 0-17.984 43.264V689.664c0 33.92 27.52 61.44 61.44 61.44h61.376v-245.312c-0.064-33.792 27.264-61.184 61.056-61.248h367.872a61.248 61.248 0 0 1 61.312 61.248V751.04h61.184c33.92 0 61.312-27.52 61.248-61.376V76.8zM574.848 566.08a31.68 31.68 0 0 1 31.616 31.616v61.312a31.68 31.68 0 0 1-63.36 0v-61.312c0-17.472 14.208-31.616 31.744-31.616z"  horiz-adv-x="1024" />
      
      <glyph glyph-name="shangchuansucai" unicode="&#59102;" d="M857.6-13.312H206.336a43.712 43.712 0 0 0-44.032 44.032c0 24.576 19.456 44.032 44.032 44.032H857.6c24.576 0 44.032-19.456 44.032-44.032a44.352 44.352 0 0 0-44.032-44.032zM502.784 742.912a37.76 37.76 0 0 0 29.696 11.264 41.6 41.6 0 0 0 29.696-11.264l266.24-266.24c15.36-15.36 15.36-40.96 0-56.32s-40.96-15.36-56.32 0L570.368 622.08v-468.992a40 40 0 0 0-39.936-39.936 39.36 39.36 0 0 0-39.936 39.936V617.984L292.864 420.352c-15.36-15.36-40.96-15.36-56.32 0a40.192 40.192 0 0 0 0 56.32l266.24 266.24z"  horiz-adv-x="1024" />
      
      <glyph glyph-name="yulan" unicode="&#59103;" d="M512 736c319.936 0 479.872-281.6 479.872-352 0-70.4-160-351.936-479.936-351.936-320 0-479.936 281.6-479.936 352C32 454.4 192 736 512 736z m0-64a435.2 435.2 0 0 1-183.36-39.232 459.84 459.84 0 0 1-131.648-91.84A462.848 462.848 0 0 1 115.904 433.92l-1.024-1.92-1.984-3.84-0.96-1.92-1.408-2.816-0.896-1.92-0.448-0.896-0.896-1.856c-3.392-7.296-6.208-14.08-8.32-20.288l-0.448-1.28-0.384-1.28-0.192-0.64-0.384-1.152-0.384-1.152a99.84 99.84 0 0 1-0.64-2.176l-0.256-1.024-0.256-1.024-0.256-0.96-0.192-0.896-0.192-0.96-0.256-1.28L96 384l0.064-0.128 0.256-1.28 0.192-0.896 0.064-0.448 0.192-0.896 0.256-0.96 0.256-1.024 0.256-1.024 0.64-2.24 0.384-1.152 0.384-1.152 0.192-0.64 0.384-1.28 0.448-1.28c2.112-6.144 4.928-12.992 8.32-20.288l0.896-1.792 0.448-0.96 0.896-1.856 1.408-2.816 0.96-1.92 1.92-3.84 1.088-1.92 2.112-3.968c19.072-34.56 46.208-70.656 78.976-103.04a459.84 459.84 0 0 1 131.648-91.84 435.2 435.2 0 0 1 183.296-39.296 435.2 435.2 0 0 1 183.36 39.296 459.84 459.84 0 0 1 131.584 91.776 462.848 462.848 0 0 1 81.088 107.072l1.088 1.92 1.92 3.84 1.024 1.92 1.408 2.816 0.896 1.92 0.448 0.896 0.832 1.792c3.392 7.296 6.208 14.144 8.32 20.352l0.448 1.28 0.448 1.28 0.192 0.576 0.384 1.152 0.32 1.152a99.84 99.84 0 0 1 0.64 2.24l0.256 1.024 0.256 1.024 0.256 0.96 0.192 0.896 0.192 0.896 0.256 1.28 0.128 0.64v0.192l-0.256 1.28-0.192 0.896-0.128 0.448-0.192 0.896-0.256 0.96-0.256 1.024-0.256 1.024a103.168 103.168 0 0 1-0.64 2.176l-0.32 1.152-0.384 1.216-0.192 0.64-0.448 1.216-0.448 1.28a215.872 215.872 0 0 1-8.32 20.288l-0.832 1.856-0.448 0.896-0.896 1.92a305.664 305.664 0 0 1-1.408 2.816l-0.96 1.92-1.984 3.84-1.088 1.92a462.848 462.848 0 0 1-81.088 107.008 459.84 459.84 0 0 1-131.584 91.84A435.2 435.2 0 0 1 511.936 672zM512 576a192 192 0 1 0 0-383.936 192 192 0 0 0 0 384z m0-64a128 128 0 1 1 0-255.936 128 128 0 0 1 0 256z"  horiz-adv-x="1024" />
      
      <glyph glyph-name="shanchu" unicode="&#59104;" d="M818.496 566.464c-21.12 1.792-38.144-7.68-43.776-28.48-4.032-14.592-3.328-30.72-3.392-46.144-0.192-122.56 0-245.12-0.192-367.616-0.128-64.256-9.792-73.856-75.712-74.112-91.52-0.32-182.976-0.064-274.432-0.064-37.952 0-75.968-1.152-113.92 0.512-39.872 1.792-51.52 14.656-53.76 54.08-0.64 12.032-0.192 24.128-0.192 36.224 0 120.768 0.256 241.6-0.128 362.432-0.128 43.968-14.08 63.36-43.136 63.488-29.248 0.064-42.432-18.368-42.56-63.616-0.384-139.776-0.832-279.552 0.192-419.392 0.576-80.064 41.472-119.68 122.56-120.64 72.448-0.832 144.96-0.192 217.408-0.192h217.472c93.952 0.768 131.712 38.208 131.968 132.288 0.384 132.864 0.192 265.792 0 398.72 0 13.696 0 27.712-2.304 41.152-3.264 19.584-17.344 29.824-36.096 31.36z m60.544 152.064a1210.624 1210.624 0 0 1-118.912 0.704c-44.16-1.6-81.344 9.088-107.968 47.424-19.072 27.52-46.528 39.296-80.32 38.272-36.224-1.088-72.512-1.6-108.672 0.192-39.232 1.92-70.976-9.6-94.08-42.368-22.976-32.576-55.68-44.096-94.336-43.328-32.768 0.64-65.536 0.192-98.304 0.128-10.368 0-20.8 0.64-31.04-0.64-27.072-3.328-43.008-19.712-42.752-42.816 0.32-23.36 16-40.384 43.648-41.28 53.44-1.6 107.008 0.64 160.384-1.28 39.552-1.408 71.36 10.432 93.824 43.136 22.784 33.216 53.44 46.592 93.312 42.624 18.752-1.856 37.888-0.832 56.896-0.256 24.256 0.64 45.824-7.488 58.432-27.328 33.408-52.352 82.304-63.36 139.136-57.92 11.968 1.216 36.16 0.448 36.16 0.576 31.104 0 62.08-0.192 93.184 0.064 18.816 0.192 33.28 7.808 40.384 26.24 10.88 28.16-5.952 55.808-38.976 57.856z m-301.952-539.52c4.16-26.688 21.12-42.368 44.224-41.152 24.32 1.28 37.248 15.808 40.832 38.848 1.6 10.112 1.536 20.544 1.6 30.848 0.064 89.472 0.192 178.88-0.128 268.288-0.064 13.696-0.768 27.712-4.096 40.832-4.864 18.752-19.2 28.096-38.4 28.544-19.072 0.448-34.112-8.32-40.064-26.432-4.096-12.736-4.544-26.944-4.736-40.512-0.576-44.736-0.192-89.472-0.192-134.208v-134.144c0-10.24-0.64-20.8 0.96-30.912z m-173.76-41.152c21.76-0.384 36.032 11.328 41.6 31.68 3.072 11.392 3.264 23.744 3.328 35.712 0.192 91.136 0.128 182.336 0.064 273.472 0 8.576 0.32 17.344-1.088 25.728-4.736 27.136-20.992 41.856-44.736 40.768-24.576-1.216-37.12-16.256-40.832-38.976-1.92-11.776-1.344-24-1.408-36.032-0.128-43.008 0-86.016 0-128.96 0-44.8-0.192-89.472 0.064-134.208 0.064-11.968 0.064-24.32 2.816-35.84 4.8-20.48 18.368-32.96 40.192-33.344z"  horiz-adv-x="1024" />
      
      <glyph glyph-name="a-zuoduiqibeifen3" unicode="&#59096;" d="M32 768h960a32 32 0 1 0 0-64H32a32 32 0 0 0 0 64z m0-256h704a32 32 0 1 0 0-64H32a32 32 0 0 0 0 64z m0-256h960a32 32 0 1 0 0-64H32a32 32 0 1 0 0 64z m0-256h704a32 32 0 1 0 0-64H32a32 32 0 1 0 0 64z"  horiz-adv-x="1024" />
      
      <glyph glyph-name="a-youduiqibeifen2" unicode="&#59097;" d="M32 768h960a32 32 0 1 0 0-64H32a32 32 0 0 0 0 64z m256-256h704a32 32 0 1 0 0-64h-704a32 32 0 0 0 0 64z m-256-256h960a32 32 0 1 0 0-64H32a32 32 0 1 0 0 64z m256-256h704a32 32 0 1 0 0-64h-704a32 32 0 1 0 0 64z"  horiz-adv-x="1024" />
      
      <glyph glyph-name="juzhongduiqi" unicode="&#59098;" d="M32 768h960a32 32 0 1 0 0-64H32a32 32 0 0 0 0 64z m128-256h704a32 32 0 1 0 0-64h-704a32 32 0 0 0 0 64z m-128-256h960a32 32 0 1 0 0-64H32a32 32 0 1 0 0 64z m128-256h704a32 32 0 1 0 0-64h-704a32 32 0 1 0 0 64z"  horiz-adv-x="1024" />
      
      <glyph glyph-name="huodongguanli" unicode="&#59093;" d="M170.6496 0A42.6496 42.6496 0 1 1 256 0v287.744l569.1392 144.1792c51.4048 22.272 51.4048 95.232 0 117.4528L260.096 794.2144a64 64 0 0 1-89.4464-58.7264V0z m42.5984 42.5984a42.6496 42.6496 0 1 1 0-85.3504h179.2a42.6496 42.6496 0 1 1 0 85.3504h-179.2zM256 703.0272l489.984-212.3776L256 380.7232V702.976z"  horiz-adv-x="1024" />
      
      <glyph glyph-name="huiyuanguanli" unicode="&#59094;" d="M554.1376 651.1104a85.2992 85.2992 0 1 1-84.0704-0.1024l-0.4096-0.768C441.7024 591.872 402.944 508.416 342.8864 477.0304c-49.152-25.7536-119.9104-12.8-172.3904-3.1744a64 64 0 1 1-75.52-67.4304l125.7472-324.6592A128 128 0 0 1 339.968 0h343.9104a128 128 0 0 1 119.3984 81.7664l125.696 324.608a64 64 0 1 1-75.3664 69.376c-53.76-6.9632-122.9824-15.872-172.544 10.0352-58.7776 30.72-98.1504 108.544-126.976 165.3248z m-41.0624-101.0176c32.768-53.1456 72.0384-110.3872 128.512-139.8784 56.6272-29.6448 126.3104-28.16 188.5696-22.784l-106.4448-274.8416a42.6496 42.6496 0 0 0-39.7824-27.2384H340.0704a42.6496 42.6496 0 0 0-39.7824 27.2384l-105.0112 271.0528c61.44-7.8336 130.8672-11.6736 187.136 17.7664 58.7776 30.72 98.1504 92.672 130.6624 148.6848zM401.0496 281.6a42.6496 42.6496 0 1 1 0-85.3504h230.4a42.6496 42.6496 0 1 1 0 85.3504h-230.4z"  horiz-adv-x="1024" />
      
      <glyph glyph-name="zichanguanli" unicode="&#59095;" d="M754.4832 296.448a42.6496 42.6496 0 0 0 21.6576 1.4336l5.3248-1.3824 128-42.7008c15.872-5.2736 27.0336-19.2 28.928-35.5328l0.256-4.9152v-71.3216a185.4464 185.4464 0 0 0-164.9664-184.32 51.3536 51.3536 0 0 0-11.3664 0 185.4464 185.4464 0 0 0-164.7616 175.2064l-0.2048 9.1136v71.3216c0 16.6912 9.728 31.6928 24.576 38.6048l4.608 1.8432 128 42.7008zM406.1696 768c23.296 0 45.5168-9.5232 61.5424-26.2144l5.12-5.8368L532.48 661.3504h320.8704c44.9536 0 81.8176-34.816 85.0944-79.0016l0.2048-6.3488V384a42.6496 42.6496 0 1 0-85.2992 0V576H532.48c-23.296 0-45.5168 9.5232-61.4912 26.2144l-5.12 5.8368-59.6992 74.5984h-235.52v-597.2992h298.7008a42.6496 42.6496 0 0 0 0-85.3504H170.6496c-44.9536 0-81.8176 34.816-85.0944 78.9504l-0.2048 6.4V682.6496c0 45.0048 34.816 81.8688 78.9504 85.0944l6.3488 0.256h235.52zM768 211.0464l-85.3504-28.4672v-40.5504c0-49.7664 36.5056-91.7504 85.3504-99.0208a100.1472 100.1472 0 0 1 85.0944 91.9552l0.256 7.0656v40.5504L768 211.0464z"  horiz-adv-x="1024" />
      
      <glyph glyph-name="chajianguanli" unicode="&#59091;" d="M343.3984 360.2432l144.8448-144.8448a51.2 51.2 0 0 0 0-72.3968l-144.8448-144.8448a51.2 51.2 0 0 0-72.3968 0l-144.8448 144.8448a51.2 51.2 0 0 0 0 72.3968l144.8448 144.8448a51.2 51.2 0 0 0 72.3968 0zM870.4 332.8a51.2 51.2 0 0 0 51.2-51.2v-204.8a51.2 51.2 0 0 0-51.2-51.2h-204.8a51.2 51.2 0 0 0-51.2 51.2v204.8a51.2 51.2 0 0 0 51.2 51.2h204.8z m-563.2-44.9536L198.5536 179.2 307.2 70.6048 415.744 179.2 307.2 287.744z m537.6-31.7952h-153.6v-153.6h153.6v153.6zM870.4 742.4a51.2 51.2 0 0 0 51.2-51.2v-204.8a51.2 51.2 0 0 0-51.2-51.2h-204.8a51.2 51.2 0 0 0-51.2 51.2V691.2a51.2 51.2 0 0 0 51.2 51.2h204.8zM307.2 750.9504c23.552 0 42.6496-19.0976 42.6496-42.7008v-68.1984L418.1504 640a42.6496 42.6496 0 1 0 0-85.3504H349.8496V486.4a42.6496 42.6496 0 1 0-85.2992 0l-0.0512 68.3008H196.2496a42.6496 42.6496 0 0 0 0 85.2992h68.2496V708.3008c0 23.552 19.1488 42.7008 42.7008 42.7008zM844.8 665.6h-153.6v-153.6h153.6v153.6z"  horiz-adv-x="1024" />
      
      <glyph glyph-name="xitongshezhi" unicode="&#59092;" d="M725.3504 256c23.552 0 42.6496-19.0976 42.6496-42.6496v-42.6496h85.3504a42.6496 42.6496 0 1 0 0-85.3504H768v-42.7008a42.6496 42.6496 0 1 0-85.3504 0v42.7008h-512a42.6496 42.6496 0 1 0 0 85.2992l512 0.0512v42.6496c0 23.552 19.0976 42.6496 42.7008 42.6496z m-426.7008 256c23.552 0 42.7008-19.0976 42.7008-42.6496l-0.0512-42.6496h512a42.6496 42.6496 0 1 0 0-85.3504h-512v-42.7008a42.6496 42.6496 0 0 0-85.2992 0v42.7008H170.6496a42.6496 42.6496 0 1 0 0 85.2992L256 426.7008v42.6496c0 23.552 19.0976 42.6496 42.6496 42.6496z m426.7008 256c23.552 0 42.6496-19.0976 42.6496-42.6496v-42.6496h85.3504a42.6496 42.6496 0 1 0 0-85.3504H768v-42.7008a42.6496 42.6496 0 1 0-85.3504 0v42.7008h-512a42.6496 42.6496 0 1 0 0 85.2992l512 0.0512v42.6496c0 23.552 19.0976 42.6496 42.7008 42.6496z"  horiz-adv-x="1024" />
      
      <glyph glyph-name="haibaoguanli" unicode="&#59083;" d="M128 682.6496c0 47.104 38.1952 85.3504 85.3504 85.3504h597.2992c47.104 0 85.3504-38.1952 85.3504-85.3504v-597.2992c0-47.104-38.1952-85.3504-85.3504-85.3504H213.3504c-47.104 0-85.3504 38.1952-85.3504 85.3504V682.6496z m341.3504 0h-256v-128h256v128z m85.2992 0v-256h256v256h-256z m0-341.2992v-256h256v256h-256z m-85.2992-256v128h-256v-128h256z m0 213.2992V469.3504h-256v-170.7008h256z"  horiz-adv-x="1024" />
      
      <glyph glyph-name="neirongguanli" unicode="&#59084;" d="M810.6496 768c47.104 0 85.3504-38.1952 85.3504-85.3504v-597.2992c0-47.104-38.1952-85.3504-85.3504-85.3504H213.3504c-47.104 0-85.3504 38.1952-85.3504 85.3504V682.6496c0 47.104 38.1952 85.3504 85.3504 85.3504h597.2992z m0-85.3504H213.3504v-597.2992h597.2992V682.6496z m-128-256c23.552 0 42.7008-19.0976 42.7008-42.6496v-170.6496c0-23.552-19.0976-42.7008-42.7008-42.7008H341.3504a42.6496 42.6496 0 0 0-42.7008 42.7008V384c0 23.552 19.0976 42.6496 42.7008 42.6496h341.2992z m-42.6496-85.2992h-256V256h256v85.3504z m42.6496 256a42.6496 42.6496 0 0 0 5.0176-85.0432l-5.0176-0.3072H341.3504a42.6496 42.6496 0 0 0-5.0176 85.0432l5.0176 0.3072h341.2992z"  horiz-adv-x="1024" />
      
      <glyph glyph-name="kongzhimianban" unicode="&#59085;" d="M370.7904 682.6496a157.44 157.44 0 0 1-135.168-238.1824 241.7664 241.7664 0 0 0 135.168 41.0624c50.0224 0 96.512-15.1552 135.168-41.0624 14.1312 23.6032 22.272 51.2 22.272 80.7424 0 43.6224-17.664 82.9952-46.336 111.5648a156.8256 156.8256 0 0 1-111.104 45.8752z m80.7424-304.6912c-23.6032 14.1312-51.2 22.272-80.7424 22.272-43.6224 0-82.9952-17.664-111.5648-46.336a157.44 157.44 0 0 1 192.3072-246.272 241.7664 241.7664 0 0 0-41.0624 135.168c0 50.0224 15.1552 96.512 41.0624 135.168zM512 45.2608A242.7904 242.7904 0 0 0 173.312 384 242.7904 242.7904 0 0 0 512 722.688 242.7904 242.7904 0 0 0 850.7392 384 242.7904 242.7904 0 0 0 512 45.2608z m276.4288 278.272a241.7664 241.7664 0 0 0-135.168-41.0624 241.8176 241.8176 0 0 0-135.168 41.0624c-14.1824-23.6032-22.3232-51.2-22.3232-80.7424 0-43.6224 17.664-82.9952 46.336-111.5648a157.44 157.44 0 0 1 246.272 192.3072z m-215.9616 66.56c23.6032-14.1824 51.2-22.3232 80.7424-22.3232 43.6224 0 82.9952 17.664 111.5648 46.336a157.44 157.44 0 0 1-192.3072 246.272c25.9072-38.6048 41.0624-85.1456 41.0624-135.168 0-50.0224-15.1552-96.512-41.0624-135.168z"  horiz-adv-x="1024" />
      
      <glyph glyph-name="seo" unicode="&#59086;" d="M454.4 691.2a249.6 249.6 0 1 1 0-499.2 249.6 249.6 0 0 1 0 499.2zM128 441.6a326.4 326.4 0 1 0 582.7584-202.0352l140.288-140.288a38.4 38.4 0 0 0-54.3232-54.272l-140.288 140.2368A326.4 326.4 0 0 0 128 441.6zM416 576a38.4 38.4 0 0 0 38.4 38.4 172.8 172.8 0 0 0 172.8-172.8 38.4 38.4 0 1 0-76.8 0C550.4 494.6432 507.392 537.6 454.4 537.6a38.4 38.4 0 0 0-38.4 38.4z"  horiz-adv-x="1024" />
      
      <glyph glyph-name="xunpanguanli" unicode="&#59087;" d="M810.6496 768a128 128 0 0 0 127.7952-120.4736l0.2048-7.5264v-426.6496a128 128 0 0 0-120.4736-127.7952l-7.5264-0.2048h-157.696l-111.36-74.24c-16.128-10.752-36.6592-11.776-53.6576-3.2256l-5.5296 3.2256-111.3088 74.24H213.3504A128 128 0 0 0 85.504 205.824l-0.2048 7.5264V640A128 128 0 0 0 205.824 767.7952l7.5264 0.2048h597.2992z m0-85.3504H213.3504a42.6496 42.6496 0 0 1-42.3936-37.6832L170.6496 640v-426.6496c0-21.9136 16.4864-39.936 37.6832-42.3936l5.0176-0.3072h157.696c14.4896 0 28.672-3.6352 41.216-10.5984l6.144-3.7376L512 93.952l93.5936 62.3616c11.9808 8.0384 25.8048 12.8 40.1408 14.0288l7.168 0.3072h157.7472c21.9136 0 39.936 16.4864 42.3936 37.6832l0.3072 5.0176V640a42.6496 42.6496 0 0 1-37.6832 42.3936l-5.0176 0.256z m-448-213.2992a64 64 0 1 0 0-128 64 64 0 0 0 0 128z m298.7008 0a64 64 0 1 0 0-128 64 64 0 0 0 0 128z"  horiz-adv-x="1024" />
      
      <glyph glyph-name="zhaopinguanli" unicode="&#59088;" d="M682.6496 298.6496a213.3504 213.3504 0 0 0 213.3504-213.2992V0a42.6496 42.6496 0 1 0-85.3504 0v85.3504a128 128 0 0 1-128 128H341.3504a128 128 0 0 1-128-128V0a42.6496 42.6496 0 1 0-85.3504 0v85.3504a213.3504 213.3504 0 0 0 213.3504 213.2992h341.2992z m231.0144 209.92a42.6496 42.6496 0 0 0 63.8976-56.32l-3.584-4.096-120.6272-120.6272c-15.36-15.36-39.6288-16.5888-56.32-3.584l-4.0448 3.584-60.3136 60.3136a42.6496 42.6496 0 0 0 56.32 63.8976l3.9936-3.584 30.208-30.1056 90.4704 90.4704zM512 810.5984A213.3504 213.3504 0 1 0 512 384a213.3504 213.3504 0 0 0 0 426.6496z m0-85.2992a128 128 0 1 1 0-256 128 128 0 0 1 0 256z"  horiz-adv-x="1024" />
      
      <glyph glyph-name="biaodanguanli" unicode="&#59089;" d="M810.6496 768c47.104 0 85.3504-38.1952 85.3504-85.3504v-597.2992c0-47.104-38.1952-85.3504-85.3504-85.3504H213.3504c-47.104 0-85.3504 38.1952-85.3504 85.3504V682.6496c0 47.104 38.1952 85.3504 85.3504 85.3504h597.2992zM341.3504 682.6496h-128v-597.2992h128V682.6496z m469.2992 0h-384v-597.2992h384V682.6496z m-256-85.2992a42.6496 42.6496 0 1 1 0-85.3504h128a42.6496 42.6496 0 1 1 0 85.3504h-128zM512 384c0 23.552 19.0976 42.6496 42.6496 42.6496h128a42.6496 42.6496 0 1 0 0-85.2992h-128A42.6496 42.6496 0 0 0 512 384z m42.6496-128a42.6496 42.6496 0 1 1 0-85.3504h128a42.6496 42.6496 0 1 1 0 85.3504h-128z"  horiz-adv-x="1024" />
      
      <glyph glyph-name="wangzhanguanli" unicode="&#59090;" d="M810.6496 776.5504c47.104 0 85.3504-38.2464 85.3504-85.3504v-614.4c0-47.104-38.1952-85.3504-85.3504-85.3504H213.3504c-47.104 0-85.3504 38.2464-85.3504 85.3504V691.2c0 47.104 38.1952 85.3504 85.3504 85.3504h597.2992z m0-341.3504H213.3504v-358.4h597.2992V435.2z m0 256H213.3504v-170.6496h597.2992V691.2z m-512-42.6496a42.6496 42.6496 0 1 0 0-85.3504 42.6496 42.6496 0 0 0 0 85.3504z m128 0a42.6496 42.6496 0 1 0 0-85.3504 42.6496 42.6496 0 0 0 0 85.3504z m128 0a42.6496 42.6496 0 1 0 0-85.3504 42.6496 42.6496 0 0 0 0 85.3504z"  horiz-adv-x="1024" />
      
    </font>
</defs>
</svg>
